<?xml version="1.0" standalone="no"?>
<!DOCTYPE svg PUBLIC "-//W3C//DTD SVG 1.1//EN" "http://www.w3.org/Graphics/SVG/1.1/DTD/svg11.dtd" >
<svg xmlns="http://www.w3.org/2000/svg">
  <metadata>Created by iconfont</metadata>
  <defs>
  <font id="iconfont" horiz-adv-x="1024">
    <font-face
      font-family="iconfont"
      font-weight="400"
      font-stretch="normal"
      units-per-em="1024"
      ascent="896"
      descent="-128"
    />
      <missing-glyph />
      
      <glyph glyph-name="child-form" unicode="&#58975;" d="M489.74 790.4h44.52v-812.67h-44.52M207.6 578.56c0 12.29 9.97 22.26 22.26 22.26H504.6c12.29 0 22.26-9.97 22.26-22.26 0-12.29-9.97-22.26-22.26-22.26H229.86c-12.29 0-22.26 9.96-22.26 22.26z m1.54-191.36c0 12.29 9.97 22.26 22.26 22.26h274.74c12.29 0 22.26-9.97 22.26-22.26 0-12.29-9.97-22.26-22.26-22.26H231.4c-12.3 0-22.26 9.97-22.26 22.26z m0-191.35c0 12.29 9.97 22.26 22.26 22.26h274.74c12.29 0 22.26-9.97 22.26-22.26 0-12.29-9.97-22.26-22.26-22.26H231.4c-12.3 0-22.26 9.96-22.26 22.26z m374.58 421.28c0 12.29 9.97 22.26 22.26 22.26h196.8c12.29 0 22.26-9.97 22.26-22.26 0-12.29-9.97-22.26-22.26-22.26h-196.8c-12.3 0-22.26 9.97-22.26 22.26z m0-154.39c0 12.29 9.97 22.26 22.26 22.26h196.8c12.29 0 22.26-9.97 22.26-22.26 0-12.29-9.97-22.26-22.26-22.26h-196.8c-12.3 0-22.26 9.96-22.26 22.26z m0-154.39c0 12.29 9.97 22.26 22.26 22.26h196.8c12.29 0 22.26-9.97 22.26-22.26 0-12.29-9.97-22.26-22.26-22.26h-196.8c-12.3 0-22.26 9.96-22.26 22.26z m0-154.4c0 12.29 9.97 22.26 22.26 22.26h196.8c12.29 0 22.26-9.97 22.26-22.26 0-12.29-9.97-22.26-22.26-22.26h-196.8c-12.3 0-22.26 9.97-22.26 22.26zM794.17 793.6H489.68v-45.51h304.49c45.16-0.2 81.71-36.76 81.92-81.92v-564.34c-0.2-45.16-36.76-81.71-81.92-81.92H229.83c-45.16 0.2-81.72 36.76-81.92 81.92V666.17c0.2 45.16 36.76 81.71 81.92 81.92h195.21c12.57 0 22.76 10.19 22.76 22.76 0 12.57-10.19 22.76-22.76 22.76H229.83c-70.09 0-127.43-57.34-127.43-127.43v-564.34c0-70.09 57.34-127.43 127.43-127.43h564.34c70.09 0 127.43 57.34 127.43 127.43V666.17c0 70.09-57.34 127.43-127.43 127.43z"  horiz-adv-x="1024" />
      
      <glyph glyph-name="add" unicode="&#58974;" d="M834.144-97.76H116.448a97.696 97.696 0 0 0-97.856 97.856v717.12a97.696 97.696 0 0 0 97.856 97.856h717.12a97.696 97.696 0 0 0 97.856-97.856v-717.12a96.832 96.832 0 0 0-97.28-97.856zM116.448 764.416c-26.208 0-47.2-20.96-47.2-47.2v-717.12c0-26.208 20.96-47.2 47.2-47.2h717.12c26.208 0 47.2 20.96 47.2 47.2v717.12c0 26.208-20.96 47.2-47.2 47.2h-717.12z m660.608-431.104h-603.52a25.472 25.472 0 0 0-25.632 25.632c0 13.984 11.072 25.632 25.632 25.632h603.52c13.984 0 25.632-11.072 25.632-25.632s-11.648-25.632-25.632-25.632z m-301.76-301.76a25.472 25.472 0 0 0-25.632 25.632V660.128c0 13.984 11.072 25.632 25.632 25.632s25.632-11.072 25.632-25.632v-603.52a25.376 25.376 0 0 0-25.632-25.056z"  horiz-adv-x="1024" />
      
      <glyph glyph-name="redo" unicode="&#58972;" d="M412.081 549.7h443.415L640.168 762.129c-18.973 18.973-18.973 46.064 0 65.038s44.325 19.884 63.381 0.83l291.385-284.591c18.973-18.973 18.973-44.159 0-63.132L703.549 195.351c-18.973-18.973-44.325-18.973-63.381 0.083-18.973 18.973-18.973 43.91 0 62.883l215.328 208.534H412.081c-177.3 0-314.335-138.359-314.335-309.364v-44.325c0-25.354-16.074-44.325-41.425-44.325s-41.425 18.973-41.425 44.325v44.325c0 221.709 169.181 392.213 397.185 392.213z"  horiz-adv-x="1024" />
      
      <glyph glyph-name="undo" unicode="&#58973;" d="M609.206 499.344H193.504l201.87 199.152c17.787 17.787 17.787 43.185 0 60.973s-41.555 18.641-59.42 0.778L62.857 493.443c-17.787-17.787-17.787-41.399 0-59.186L336.03 167.14200000000005c17.787-17.787 41.555-17.787 59.42 0.078 17.787 17.787 17.787 41.166 0 58.953L193.502 421.674h415.702c166.219 0 311.155-129.712 311.155-290.029v-41.555c0-23.769 15.069-41.555 38.836-41.555s38.836 17.787 38.836 41.555v41.555c0 207.852-175.073 367.7-388.828 367.7z"  horiz-adv-x="1024" />
      
      <glyph glyph-name="pc" unicode="&#58971;" d="M832 768H192c-70.656 0-128-57.344-128-128v-384c0-70.656 57.344-128 128-128h640c70.656 0 128 57.344 128 128V640c0 70.656-57.344 128-128 128z m64-512c0-35.328-28.608-64-64-64H192c-35.392 0-64 28.672-64 64V640c0 35.392 28.608 64 64 64h640c35.392 0 64-28.608 64-64v-384zM736 0H288c-17.664 0-32-14.336-32-32s14.336-32 32-32h448c17.664 0 32 14.336 32 32s-14.336 32-32 32z"  horiz-adv-x="1024" />
      
      <glyph glyph-name="pad" unicode="&#58970;" d="M810.667-53.333H213.333c-40.533 0-74.666 34.133-74.666 74.666V746.667c0 40.533 34.133 74.666 74.666 74.666h597.334c40.533 0 74.666-34.133 74.666-74.666v-725.334c0-40.533-34.133-74.666-74.666-74.666zM213.333 757.333c-6.4 0-10.666-4.266-10.666-10.666v-725.334c0-6.4 4.266-10.666 10.666-10.666h597.334c6.4 0 10.666 4.266 10.666 10.666V746.667c0 6.4-4.266 10.666-10.666 10.666H213.333zM469.333 128a42.667 42.667 0 1 1 85.334 0 42.667 42.667 0 1 1-85.334 0z"  horiz-adv-x="1024" />
      
      <glyph glyph-name="mobile" unicode="&#58969;" d="M744 784H280c-35.3 0-64-28.7-64-64v-672c0-35.3 28.7-64 64-64h464c35.3 0 64 28.7 64 64V720c0 35.3-28.7 64-64 64z m-8-728H288V712h448v-656zM446 208c0-36.5 29.5-66 66-66s66 29.5 66 66-29.5 66-66 66-66-29.5-66-66z"  horiz-adv-x="1024" />
      
      <glyph glyph-name="undo-new" unicode="&#58968;" d="M398.208 593.088V832L0 413.888l398.208-418.176V240.64c284.48 0 483.584-95.552 625.792-304.64-56.896 298.688-227.584 597.312-625.792 657.088z"  horiz-adv-x="1024" />
      
      <glyph glyph-name="redo-new" unicode="&#58967;" d="M625.792 593.088V832L1024 413.888 625.792-4.288000000000011V240.64C341.312 240.64 142.208 145.08799999999997 0-64c56.896 298.688 227.584 597.312 625.792 657.088z"  horiz-adv-x="1024" />
      
      <glyph glyph-name="input" unicode="&#58926;" d="M856.992 684H166.976A135.392 135.392 0 0 1 31.968 548.992v-330.016a135.392 135.392 0 0 1 135.008-135.008h690.016A135.392 135.392 0 0 1 992 218.976V548.992A135.392 135.392 0 0 1 856.992 684z m82.496-464.992c0-21.952-8.64-42.56-24.192-58.304a81.728 81.728 0 0 0-58.304-24.192H166.976a82.464 82.464 0 0 0-82.496 82.496V549.024a82.464 82.464 0 0 0 82.496 82.496h690.016c21.952 0 42.56-8.64 58.304-24.192 15.744-15.744 24.192-36.384 24.192-58.304v-330.016z m-644.992 36.544a27.2 27.2 0 1 1 54.4 0 27.2 27.2 0 1 1-54.4 0z m106.88 0a27.2 27.2 0 1 1 54.4 0 27.2 27.2 0 1 1-54.4 0z m106.88 0a27.2 27.2 0 1 1 54.4 0 27.2 27.2 0 1 1-54.4 0zM176.384 539.616h52.512v-311.264h-52.512z"  horiz-adv-x="1024" />
      
      <glyph glyph-name="font" unicode="&#58927;" d="M862.838-113.74300000000005c-19.377 0-37.888 13.076-46.08 34.659l-0.079 0.157-109.331 291.21h-386.52L206.926-79.71400000000006c-11.343-28.909-40.96-41.748-66.245-28.909-25.285 12.918-36.628 46.79-25.285 75.697L426.535 764.14c10.95 27.963 30.72 49.389 55.769 60.338a88.222 88.222 0 0 0 76.642-2.364c23.08-11.815 41.354-32.846 51.2-59.47l298.772-796.357c10.95-28.987-0.788-62.7-26.23-75.146a44.426 44.426 0 0 0-19.85-4.726zM365.647 326.735h299.087L518.223 717.273 365.647 326.735z"  horiz-adv-x="1024" />
      
      <glyph glyph-name="tabs" unicode="&#58928;" d="M320 768V896H128A128 128 0 0 1 0 768v-768a128 128 0 0 1 128-128h768a128 128 0 0 1 128 128V768H320z m640-768a64 64 0 0 0-64-64H128a64 64 0 0 0-64 64V768a64 64 0 0 0 64 64h128v-64a64 64 0 0 1 64-64h640v-704zM640 896H384v-64h256V896z m320 0H704v-64h256V896zM128 512v-64h64v-256h64V448h64v64H128z m512-320v64h-64V384H384v-192h256zM448 320h64v-64h-64v64z m448-128V384H768V512h-64v-320h192zM768 320h64v-64h-64v64z"  horiz-adv-x="1024" />
      
      <glyph glyph-name="date" unicode="&#58929;" d="M120.32 509.44h793.6V448h-793.6z m248.32-247.296h-128c-5.632 0-10.24 4.608-10.24 10.24V345.6c0 5.632 4.608 10.24 10.24 10.24h128c5.632 0 10.24-4.608 10.24-10.24v-73.216c0-5.632-4.608-10.24-10.24-10.24z m206.336 0h-128c-5.632 0-10.24 4.608-10.24 10.24V345.6c0 5.632 4.608 10.24 10.24 10.24h128c5.632 0 10.24-4.608 10.24-10.24v-73.216c0-5.632-4.608-10.24-10.24-10.24z m206.848 0h-128c-5.632 0-10.24 4.608-10.24 10.24V345.6c0 5.632 4.608 10.24 10.24 10.24h128c5.632 0 10.24-4.608 10.24-10.24v-73.216c0-5.632-4.608-10.24-10.24-10.24zM368.64 115.2h-128c-5.632 0-10.24 4.608-10.24 10.24v73.216c0 5.632 4.608 10.24 10.24 10.24h128c5.632 0 10.24-4.608 10.24-10.24v-73.216c0-5.632-4.608-10.24-10.24-10.24z m206.336 0h-128c-5.632 0-10.24 4.608-10.24 10.24v73.216c0 5.632 4.608 10.24 10.24 10.24h128c5.632 0 10.24-4.608 10.24-10.24v-73.216c0-5.632-4.608-10.24-10.24-10.24z m206.848 0h-128c-5.632 0-10.24 4.608-10.24 10.24v73.216c0 5.632 4.608 10.24 10.24 10.24h128c5.632 0 10.24-4.608 10.24-10.24v-73.216c0-5.632-4.608-10.24-10.24-10.24zM384 568.32h-35.84c-5.632 0-10.24 4.608-10.24 10.24V816.64c0 5.632 4.608 10.24 10.24 10.24H384c5.632 0 10.24-4.608 10.24-10.24v-238.08c0-5.632-4.608-10.24-10.24-10.24z m312.32 0h-35.84c-5.632 0-10.24 4.608-10.24 10.24V816.64c0 5.632 4.608 10.24 10.24 10.24h35.84c5.632 0 10.24-4.608 10.24-10.24v-238.08c0-5.632-4.608-10.24-10.24-10.24zM418.816 724.48h204.8v-61.44h-204.8zM852.48-49.664H166.4c-50.688 0-92.16 41.472-92.16 92.16V632.32c0 50.688 41.472 92.16 92.16 92.16h145.92v-61.44H166.4c-16.896 0-30.72-13.824-30.72-30.72v-589.824c0-16.896 13.824-30.72 30.72-30.72h686.08c16.896 0 30.72 13.824 30.72 30.72V632.32c0 16.896-13.824 30.72-30.72 30.72H732.16v61.44h120.32c50.688 0 92.16-41.472 92.16-92.16v-589.824c0-50.688-41.472-92.16-92.16-92.16z"  horiz-adv-x="1024" />
      
      <glyph glyph-name="sync" unicode="&#58930;" d="M512.427 725.333v128L341.76 682.667 512.427 512V640c141.226 0 256-114.773 256-256 0-43.093-10.667-84.053-29.867-119.467l62.293-62.293A338.347 338.347 0 0 1 853.76 384c0 188.587-152.747 341.333-341.333 341.333z m0-597.333c-141.227 0-256 114.773-256 256 0 43.093 10.666 84.053 29.866 119.467L224 565.76A338.347 338.347 0 0 1 171.093 384c0-188.587 152.747-341.333 341.334-341.333v-128l170.666 170.666L512.427 256v-128z"  horiz-adv-x="1024" />
      
      <glyph glyph-name="grid" unicode="&#58931;" d="M416 848H64a16 16 0 0 1-16-16v-352a16 16 0 0 1 16-16h352a16 16 0 0 1 16 16V832a16 16 0 0 1-16 16z m544 0H608a16 16 0 0 1-16-16v-352a16 16 0 0 1 16-16h352a16 16 0 0 1 16 16V832a16 16 0 0 1-16 16zM416 304H64a16 16 0 0 1-16-16v-352a16 16 0 0 1 16-16h352a16 16 0 0 1 16 16V288a16 16 0 0 1-16 16z m544 0H608a16 16 0 0 1-16-16v-352a16 16 0 0 1 16-16h352a16 16 0 0 1 16 16V288a16 16 0 0 1-16 16z"  horiz-adv-x="1024" />
      
      <glyph glyph-name="bars" unicode="&#58932;" d="M72.521 640.11h878.336v-73.143H72.521V640.11z m0-237.824h878.336v-73.143H72.521v73.143z m0-237.824h878.336v-73.143H72.521v73.143z"  horiz-adv-x="1024" />
      
      <glyph glyph-name="select" unicode="&#58933;" d="M484.647 670.822h475.048V562.03H484.647V670.822z m0-232.425h475.048v-108.794H484.647V438.397z m0-232.425h475.048v-108.794H484.647V205.97199999999998zM64.303 640.996l51.925 51.926 74.178-74.179L302.91 731.2470000000001l49.645-49.646-163.192-163.19z m0-240.847l51.925 51.924 74.178-74.177L302.91 490.399l49.645-49.607L189.363 277.6z m0-240.848l51.925 51.925 74.178-74.177L302.91 249.55200000000002l49.645-49.607-163.192-163.192z"  horiz-adv-x="1024" />
      
      <glyph glyph-name="slider" unicode="&#58934;" d="M933.387 784.053H71.21c-23.296 0-38.848-15.52-38.848-38.848v-7.776c0-23.296 15.52-38.848 38.848-38.848h862.176c7.776 0 15.52 0 23.296 7.776s7.776 15.52 7.776 23.296v7.776c0 31.072-15.52 46.592-31.072 46.592zM778.059 822.901h-77.664c-23.296 0-38.848-15.52-38.848-38.848v-77.664c0-23.296 15.52-38.848 38.848-38.848h77.664c23.296 0 38.848 15.52 38.848 38.848v77.664c0 23.296-15.52 38.848-38.848 38.848zM933.387 434.55H71.21c-23.296 0-38.848-15.52-38.848-38.848v-7.776c0-23.296 15.52-38.848 38.848-38.848h862.176c23.296 0 38.848 15.52 38.848 38.848v7.776c-7.776 23.296-23.296 38.848-38.848 38.848z m-396.128 38.816h-77.664c-23.296 0-38.848-15.52-38.848-38.848v-77.664c0-23.296 15.52-38.848 38.848-38.848h77.664c23.296 0 38.848 15.52 38.848 38.848v77.664c0 23.296-15.52 38.848-38.848 38.848z m396.128-388.352H71.21c-7.776 0-15.52 0-23.296-7.776s-7.776-15.52-7.776-23.296v-7.776c0-23.296 15.52-38.848 38.848-38.848h862.176c23.296 0 38.848 15.52 38.848 38.848v7.776c-15.52 15.52-31.072 31.072-46.592 31.072zM312.01 123.861h-77.664c-23.296 0-38.848-15.52-38.848-38.848v-77.664c0-23.296 15.52-38.848 38.848-38.848h77.664c23.296 0 38.848 15.52 38.848 38.848v77.664c0 23.296-15.52 38.848-38.848 38.848z"  horiz-adv-x="1024" />
      
      <glyph glyph-name="single-layout" unicode="&#58935;" d="M953.59 827.141H70.41c-38.507 0-69.724-31.217-69.724-69.724v-746.829c0-38.507 31.217-69.724 69.724-69.724h883.18c38.507 0 69.719 31.222 69.719 69.724V757.417c0 38.507-31.207 69.724-69.72 69.724z m1.551-69.724v-475.679H69.422l0.993 477.23 884.726-1.551z m-1.551-748.37l-884.731 1.541 0.42 202.983H955.14v-202.983a1.536 1.536 0 0 0-1.551-1.541z m0 0"  horiz-adv-x="1024" />
      
      <glyph glyph-name="trash" unicode="&#58936;" d="M799.187 22.1c0-34.328-28.046-62.373-62.374-62.373H287.187c-34.328 0-62.374 28.045-62.374 62.373V684.424h574.374V22.1zM349.56 796.382c0 7.18 5.61 12.789 12.789 12.789h299.975c7.18 0 12.79-5.61 12.79-12.789v-37.693H349.56V796.382z m636.747-37.469H749.602v37.47c0 48.013-39.264 87.277-87.278 87.277H362.35c-48.014 0-87.278-39.264-87.278-87.278v-37.693H37.693C16.827 758.913 0 742.086 0 721.22s16.827-37.693 37.693-37.693h111.958v-661.651c0-76.06 61.7-137.536 137.536-137.536h449.626c76.06 0 137.536 61.7 137.536 137.536V684.424h111.958c20.866 0 37.693 16.828 37.693 37.693 0 20.642-16.827 36.796-37.693 36.796zM512 72.358c20.866 0 37.693 16.827 37.693 37.693V510.093c0 20.866-16.827 37.693-37.693 37.693s-37.693-16.827-37.693-37.693V110.05c0-20.866 16.827-37.693 37.693-37.693m-175.229 0c20.866 0 37.694 16.827 37.694 37.693V510.093c0 20.866-16.828 37.693-37.694 37.693s-37.693-16.827-37.693-37.693V110.05c0.897-20.866 17.725-37.693 37.693-37.693m350.458 0c20.866 0 37.693 16.827 37.693 37.693V510.093c0 20.866-16.827 37.693-37.693 37.693s-37.694-16.827-37.694-37.693V110.05c0-20.866 16.828-37.693 37.694-37.693"  horiz-adv-x="1024" />
      
      <glyph glyph-name="rate" unicode="&#58937;" d="M512 810.667L392 528 85.333 501.333l232-201.333L248 0l264 158.667L776 0l-69.333 300 232 201.333L632 528 512 810.667z m0-217.334l41.333-98.666 20-46.667 52-5.333 105.334-9.334-80-69.333L612 330.667 624 280l24-104-92 54.667-44 26.666v336z"  horiz-adv-x="1024" />
      
      <glyph glyph-name="clone" unicode="&#58938;" d="M357.39-32.23000000000002V538.39H928v-570.62H357.39zM824.3 434.6H461.17v-363.14H824.3V434.6zM616.8 693.98h-415v-415.01h51.88v-103.71L98 175.26999999999998V797.77h622.52l0.01-155.67H616.8v51.88z"  horiz-adv-x="1024" />
      
      <glyph glyph-name="clear" unicode="&#58939;" d="M734.903 773.01l5.047-2.633 63.378-36.571a69.486 69.486 0 0 0 28.05-89.893l-2.633-5.047-128-221.696a70.62 70.62 0 0 0-1.902-3.108l72.083-41.619a106.057 106.057 0 0 0 45.787-130.34l-2.56-6.034-29.257-63.452a28.965 28.965 0 0 0-2.267-4.9l-0.22-0.293-76.068-164.681a106.057 106.057 0 0 0-2.122-4.316l-2.304-4.205a106.057 106.057 0 0 0-138.971-41.984l-5.925 3.145-368.018 212.48a106.057 106.057 0 0 0-37.34 147.383l3.694 5.595 148.188 210.066a106.057 106.057 0 0 0 133.705 33.939l5.998-3.219 72.119-41.618 1.718 3.218 128 221.696a69.486 69.486 0 0 0 89.856 28.087zM300.69 412.745l-91.538-129.828a40.229 40.229 0 0 1 9.691-56.064l1.5-1.024 1.572-0.951 33.573-19.383 61.22 106.094a27.429 27.429 0 1 0 47.507-27.429l-61.257-106.057 79.177-45.714 61.257 106.057a27.429 27.429 0 1 0 47.506-27.429L429.641 104.96l79.177-45.714 61.257 106.057a27.429 27.429 0 1 0 47.543-27.429l-61.293-106.057 33.572-19.383a40.229 40.229 0 0 1 54.967 14.702l0.878 1.61 0.804 1.608 66.56 144.238-412.452 238.153z m59.539 83.895l-2.926-3.694-23.296-32.95 403.383-232.96 16.969 36.644a40.229 40.229 0 0 1-12.69 49.298l-3.694 2.414-327.68 189.184a40.229 40.229 0 0 1-50.103-7.936z m342.784 216.503l-0.951-1.097-128-221.696a3.657 3.657 0 0 1 1.316-5.01l-0.073 0.11 63.525-36.719a3.657 3.657 0 0 1 3.95 0.293l0.95 1.097 128 221.696a3.657 3.657 0 0 1-0.256 4.023l-1.097 0.987-63.342 36.572a3.657 3.657 0 0 1-4.022-0.256z"  horiz-adv-x="1024" />
      
      <glyph glyph-name="coral" unicode="&#58940;" d="M1197.39 781.015H984.544a15.04 15.04 0 0 1-15.04-15.04V3.4700000000000273a16.408 16.408 0 0 1 16.407-16.407h231.531c41.475 0 36.917 11.394 36.917 45.577V724.499c0 56.516-4.101 56.516-56.97 56.516z m-364.617 0H529.231a15.496 15.496 0 0 1-15.497-15.04v-764.782a14.129 14.129 0 0 1 14.13-14.13h311.29a16.408 16.408 0 0 1 16.408 16.864V762.328c0 14.129-2.279 18.687-24.612 18.687zM399.792 15.777000000000044V763.6949999999999a17.32 17.32 0 0 1-17.32 17.32H131.345a16.408 16.408 0 0 1-16.408-16.408v-757.49a20.054 20.054 0 0 1 20.054-20.053h230.62c8.659 0 20.509-3.19 29.169 4.102s4.101 11.85 4.101 24.611zM171.907 894.501H1197.39a190.512 190.512 0 0 0 136.731-35.55 187.777 187.777 0 0 0 36.006-136.73v-678.642a187.777 187.777 0 0 0-36.006-134.452 188.689 188.689 0 0 0-136.73-35.55H171.906A182.308 182.308 0 0 0 39.734-92.24000000000001 192.79 192.79 0 0 0 0.994 44.49000000000001V724.5C0.993 877.181 57.963 894.5 171.906 894.5z"  horiz-adv-x="1375" />
      
      <glyph glyph-name="check-box" unicode="&#58941;" d="M128 768h768a42.667 42.667 0 0 0 42.667-42.667v-704A42.667 42.667 0 0 0 896-21.33299999999997H128a42.667 42.667 0 0 0-42.667 42.666v704A42.667 42.667 0 0 0 128 768z m42.667-64a21.333 21.333 0 0 1-21.334-21.333V64a21.333 21.333 0 0 1 21.334-21.333h682.666A21.333 21.333 0 0 1 874.667 64V682.667A21.333 21.333 0 0 1 853.333 704H170.667zM278.4 425.6a42.667 42.667 0 0 0 60.352 0l150.827-150.848a42.667 42.667 0 0 0-60.331-60.352L278.421 365.24800000000005a42.667 42.667 0 0 0 0 60.352zM759.616 546.283a42.667 42.667 0 0 0 0-60.352L488.086 214.39999999999998a42.667 42.667 0 1 0-60.353 60.352l271.531 271.53a42.667 42.667 0 0 0 60.352 0z"  horiz-adv-x="1024" />
      
      <glyph glyph-name="preview" unicode="&#58942;" d="M671.983-25.600000000000023H204.8a68.267 68.267 0 0 0-68.267 68.267V725.333A68.267 68.267 0 0 0 204.8 793.6h614.4a68.352 68.352 0 0 0 68.267-68.267v-386.696A243.046 243.046 0 1 1 671.983-25.600000000000023zM293.188 336.70799999999997a31.505 31.505 0 1 1 0-63.01h62.14a31.505 31.505 0 1 1 0 63.01z m0 141.79a31.505 31.505 0 1 1 0-63.01h156.007a31.505 31.505 0 0 1 0 63.01z m0 157.543a31.522 31.522 0 0 1 0-63.028h453.257a31.522 31.522 0 0 1 0 63.028zM883.132-23.057000000000016a36.95 36.95 0 0 0-26.334 10.923l-68.523 68.522A196.386 196.386 0 0 0 539.41 357.922 196.386 196.386 0 0 0 840.926 109.03999999999996l68.54-68.523a37.257 37.257 0 0 0-26.334-63.573zM678.162 352.58000000000004a133.53 133.53 0 1 1 133.546-133.53A133.683 133.683 0 0 1 678.16 352.58000000000004z"  horiz-adv-x="1024" />
      
      <glyph glyph-name="custom" unicode="&#58943;" d="M693.632 260.288c0-17.728 14.336-32.064 32.064-32.064h256.64a32.128 32.128 0 0 1 0 64.192h-256.64a32.128 32.128 0 0 1-32.128-32.128z m288.64-104.064H610.56a32.128 32.128 0 1 1 0-64.192H982.4a32.128 32.128 0 0 1 0 64.192z m0-136.832H482.56a32.128 32.128 0 1 1 0-64.192H982.4a32.128 32.128 0 0 1 0 64.192zM91.968 273.08799999999997l47.36-47.36L323.52 41.60000000000002 825.984 544c42.496 42.56 38.592 115.648-8.768 162.944l-67.52 67.584c-47.36 47.36-120.448 51.328-162.944 8.832L84.288 280.832 10.752 11.583999999999946a33.792 33.792 0 0 1 41.536-41.6L321.6 43.39200000000005l-55.104 55.168-174.912-47.744 47.68 174.912-47.36 47.36zM640 730.048c16.128 16.128 43.904 14.592 61.824-3.328l67.584-67.52c17.92-18.048 19.456-45.76 3.264-61.888L695.68 520.3199999999999 562.944 652.928 640 730.048zM509.76 599.6800000000001l132.672-132.672L318.08 142.72000000000003 185.408 275.39200000000005 509.76 599.744z"  horiz-adv-x="1024" />
      
      <glyph glyph-name="json" unicode="&#58944;" d="M213.333 768h85.334v-85.333h-85.334v-213.334A85.333 85.333 0 0 0 128 384a85.333 85.333 0 0 0 85.333-85.333v-213.334h85.334V0h-85.334C167.595 11.435 128 38.187 128 85.333V256a85.333 85.333 0 0 1-85.333 85.333H0v85.334h42.667A85.333 85.333 0 0 1 128 512V682.667A85.333 85.333 0 0 0 213.333 768z m597.334 0A85.333 85.333 0 0 0 896 682.667V512a85.333 85.333 0 0 1 85.333-85.333H1024v-85.334h-42.667A85.333 85.333 0 0 1 896 256v-170.667c0-47.146-39.595-73.898-85.333-85.333h-85.334v85.333h85.334V298.667A85.333 85.333 0 0 0 896 384a85.333 85.333 0 0 0-85.333 85.333V682.667h-85.334V768h85.334zM512 256a42.667 42.667 0 1 0 0-85.333A42.667 42.667 0 0 0 512 256z m-170.667 0a42.667 42.667 0 1 0 0-85.333 42.667 42.667 0 0 0 0 85.333z m341.334 0a42.667 42.667 0 1 0 0-85.333 42.667 42.667 0 0 0 0 85.333z"  horiz-adv-x="1024" />
      
      <glyph glyph-name="cascade" unicode="&#58945;" d="M128 384V672c0 16 12.8 32 32 32h384c19.2 0 32-12.8 32-32v-288c0-16-12.8-32-32-32h-32v-64h64c35.2 0 64 28.8 64 64V704c0 35.2-28.8 64-64 64H128c-35.2 0-64-28.8-64-64v-352c0-35.2 28.8-64 64-64h192v64H160c-16 0-32 12.8-32 32zM896 480H704v-64h160c19.2 0 32-12.8 32-32v-288c0-16-12.8-32-32-32H480c-19.2 0-32 12.8-32 32V384c0 16 12.8 32 32 32h32v64h-64c-35.2 0-64-28.8-64-64v-352c0-35.2 28.8-64 64-64h448c35.2 0 64 28.8 64 64V416c0 35.2-28.8 64-64 64z"  horiz-adv-x="1024" />
      
      <glyph glyph-name="delete" unicode="&#58946;" d="M236.308 659.692V-25.6a23.63 23.63 0 0 1 23.63-23.63h504.124a23.63 23.63 0 0 1 23.63 23.63V659.692H236.308z m393.846 78.77V793.6a23.63 23.63 0 0 1-23.63 23.63H417.476a23.63 23.63 0 0 1-23.63-23.63v-55.138h236.307z m78.77 0h275.691a39.385 39.385 0 1 0 0-78.77H866.462V-49.23c0-43.504-35.265-78.769-78.77-78.769H236.308c-43.505 0-78.77 35.265-78.77 78.77v708.92H39.385a39.385 39.385 0 0 0 0 78.77h275.692V817.23c0 43.505 35.265 78.77 78.77 78.77h236.307c43.504 0 78.77-35.265 78.77-78.77v-78.768zM433.23 502.154a39.385 39.385 0 0 0 39.384-39.385v-315.077a39.385 39.385 0 0 0-78.769 0V462.77a39.385 39.385 0 0 0 39.385 39.385z m157.538 0a39.385 39.385 0 0 0 39.385-39.385v-315.077a39.385 39.385 0 0 0-78.77 0V462.77a39.385 39.385 0 0 0 39.385 39.385z"  horiz-adv-x="1024" />
      
      <glyph glyph-name="picture" unicode="&#58947;" d="M918.692 746.076H108.74c-54.37 0-98.444-44.255-98.444-98.444V92.19000000000005c0-54.37 44.255-98.444 98.444-98.444h809.952c54.37 0 98.444 44.254 98.444 98.444V647.6320000000001c0 54.19-44.074 98.444-98.444 98.444zM108.74 681.41h809.952c18.605 0 33.778-15.173 33.778-33.778v-444.534c-68.28 106.392-120.843 174.85-175.393 184.244-20.05 3.432-39.017-1.445-54.912-14.09l-2.89-2.709c-35.765-36.488-57.983-71.53-77.491-102.418-23.663-37.39-40.642-64.305-71.711-77.31-0.361 0-13.186 0.542-42.81 38.835-23.843 30.527-48.95 72.434-75.504 116.688-30.888 51.48-62.86 104.586-94.831 142.88-35.946 42.81-73.156 45.7-98.083 40.642-73.698-15.173-137.641-125.358-183.702-234.46V647.6320000000001c-0.18 18.605 14.992 33.778 33.597 33.778z m809.952-623.18H108.74c-18.605 0-33.778 15.173-33.778 33.778v10.838c61.054 202.85 141.796 351.87 196.888 363.25 4.697 0.903 16.98 3.432 35.585-18.786 28.72-34.32 59.428-85.258 89.051-134.57 59.79-99.528 112.353-187.315 172.684-187.315 8.49 0 16.98 1.806 25.83 5.419 49.854 20.773 74.962 60.33 101.515 102.418 17.521 27.637 37.21 58.886 67.195 89.954 0.723 0.362 1.445 0.362 2.529 0.181 38.836-6.683 116.327-130.055 162.568-203.933 7.767-12.283 15.173-24.204 22.58-35.765-3.613-14.45-16.98-25.469-32.695-25.469zM764.071 424.913c61.054 0 110.547 49.674 110.547 110.547S824.944 646.006 764.07 646.006 653.525 596.332 653.525 535.46s49.673-110.547 110.546-110.547z m0 156.427c25.289 0 45.88-20.592 45.88-45.88 0-25.289-20.591-45.88-45.88-45.88s-45.88 20.591-45.88 45.88c0 25.288 20.592 45.88 45.88 45.88z"  horiz-adv-x="1024" />
      
      <glyph glyph-name="time" unicode="&#58948;" d="M512.085-128C229.615-128 0.648 101.17 0.648 383.88 0.648 666.557 229.614 895.694 512.085 895.694s511.437-229.137 511.437-511.812c0-282.71-228.966-511.881-511.437-511.881z m-0.068 955.617c-244.833 0-443.327-198.664-443.327-443.736 0-245.038 198.494-443.703 443.327-443.703 244.867 0 443.361 198.665 443.361 443.703 0 245.072-198.494 443.736-443.36 443.736z m2.184-736.615c-155.738 0-281.96 126.324-281.96 282.164 0 147.89 113.699 268.992 258.347 281.038v29.21h-63.913V704.74h191.772v-21.327h-63.913v-31.223c136.561-19.654 241.626-136.9 241.626-279.024 0-155.84-126.221-282.164-281.96-282.164z m0.75 520.65c-131.1 0-237.394-106.361-237.394-237.565 0-131.203 106.294-237.565 237.395-237.565 131.1 0 237.36 106.362 237.36 237.565 0 131.204-106.26 237.565-237.36 237.565z m0-444.965c-114.482 0-207.229 92.883-207.229 207.4 0 114.551 92.747 207.4 207.23 207.4 114.449 0 207.23-92.849 207.23-207.4 0-114.517-92.781-207.4-207.23-207.4z m82.51 239.169h-63.946V533.749H489.87v-170.922h107.59v43.029z"  horiz-adv-x="1024" />
      
      <glyph glyph-name="tooltip" unicode="&#58949;" d="M513.806-54.55600000000004c-240.198 0-435.245 194.746-435.245 435.245S273.307 815.934 513.806 815.934 949.051 621.188 949.051 380.69000000000005 754.004-54.55600000000004 513.806-54.55600000000004z m0 812.096c-208.292 0-377.152-168.86-377.152-377.152s168.86-377.152 377.152-377.152 377.152 168.86 377.152 377.152S722.098 757.54 513.806 757.54zM579.424 366.54200000000003c-36.12-21.07-53.578-48.46-52.073-81.57v-20.469h-51.47s-1.807 41.538 6.02 68.327c6.621 21.973 26.186 44.849 52.072 63.21 45.45 30.1 66.52 61.103 63.51 93.009-4.514 45.45-31.002 69.53-79.162 72.54-55.986 1.506-91.504-29.497-106.554-93.008l-54.782 26.187 9.03 23.478c24.983 64.414 78.862 95.718 161.336 93.009 81.57-4.515 126.119-43.946 133.644-117.691 4.515-46.956-22.575-89.397-81.571-127.022z m-51.471-217.02H475.88v58.092h52.073v-58.093z"  horiz-adv-x="1024" />
      
      <glyph glyph-name="drag" unicode="&#58950;" d="M1023.996 384.001v0.158a51.042 51.042 0 0 1-14.966 36.391c-0.709 0.709-1.575 0.788-2.284 1.418L900.17 528.62a51.2 51.2 0 1 1-72.467-72.389l21.11-21.031h-285.38V720.817l20.874-20.795a51.2 51.2 0 1 1 72.467 72.389L549.098 880.009a51.515 51.515 0 0 1-17.802 12.13c-3.23 1.34-6.695 1.497-10.16 2.049-2.836 0.55-5.672 1.811-8.823 1.811h-0.157a51.042 51.042 0 0 1-36.392-14.966c-0.63-0.709-0.866-1.575-1.418-2.205L367.615 772.174a51.2 51.2 0 1 1 72.388-72.467l21.032 21.11v-285.616H175.26l21.031 21.031a51.2 51.2 0 1 1-72.467 72.468L16.384 421.023A50.727 50.727 0 0 1 0 384c0-15.281 7.09-28.672 17.723-38.045l106.496-106.417a51.2 51.2 0 1 1 72.388 72.389L175.655 332.8h285.3v-285.537l-21.03 21.031a51.2 51.2 0 1 1-72.468-72.388l107.598-107.599a50.727 50.727 0 0 1 37.1-16.305 50.412 50.412 0 0 1 38.046 17.802l106.417 106.338a51.2 51.2 0 1 1-72.389 72.467l-20.874-20.873V332.8h285.38l-20.795-20.873a51.2 51.2 0 1 1 72.389-72.468l107.598 107.599a51.515 51.515 0 0 1 12.13 17.88c1.34 3.23 1.418 6.853 2.127 10.24 0.473 3.072 1.733 5.671 1.733 8.822"  horiz-adv-x="1024" />
      
      <glyph glyph-name="release" unicode="&#58951;" d="M831.789891 8.095953000000009c-4.099999 0-8.099997 0.7-11.999996 2L560.899983 97.39392299999997l24.098992 71.597975 217.293926-73.397974 123.096958 688.379764-789.079731-464.084841 174.695941-60.899979-24.799992-71.296976L34.313163 275.28986199999997c-13.899995 4.899998-23.699992 17.299994-25.199991 31.998989-1.399 14.599995 5.799998 28.79999 18.399994 36.198988L957.887848 890.771652c12.799996 7.499997 28.59899 6.899998 40.698986-1.6 12.199996-8.399997 18.198994-23.099992 15.599994-37.599987L868.889878 39.19594300000006c-1.899999-10.799996-8.499997-20.299993-17.899994-25.898991-5.899998-3.399999-12.499996-5.199998-19.199993-5.199999zM394.90304-128c-20.899993 0-37.798987 16.899994-37.798987 37.798987V161.89190099999996c0 8.899997 3.099999 17.399994 8.799997 24.199992l582.183801 696.279762c13.399995 15.999995 37.398987 17.999994 53.197982 4.799998 15.999995-13.399995 18.099994-37.199987 4.799998-53.199982l-573.483804-685.779765V-90.30001300000004c0-20.799993-16.899994-37.698987-37.698987-37.698987z"  horiz-adv-x="1024" />
      
      <glyph glyph-name="rich-text" unicode="&#58952;" d="M173.26 656.794h98.305v-286.72h-32.768v-40.96h131.072v40.96H337.1v286.72h98.304v-40.96h32.768v122.88h-327.68v-122.88h32.768v40.96z m376.833-88.474h327.68v-81.92h-327.68v81.92z m327.68-163.84v-81.92h-327.68v81.92h327.68z m0-157.286v-81.92h-737.28v81.92h737.28z m0-122.88v-81.92h-737.28v81.92h737.28z m-327.68 614.4h327.68v-81.92h-327.68v81.92z m409.6-845.579H58.573a40.96 40.96 0 0 0-40.96 40.96V835.215a40.96 40.96 0 0 0 40.96 40.96h901.12a40.96 40.96 0 0 0 40.96-40.96v-901.12a40.96 40.96 0 0 0-40.96-40.96z m0 81.92v819.2a40.96 40.96 0 0 1-40.96 40.96h-819.2a40.96 40.96 0 0 1-40.96-40.96v-819.2a40.96 40.96 0 0 1 40.96-40.96h819.2a40.96 40.96 0 0 1 40.96 40.96z"  horiz-adv-x="1024" />
      
      <glyph glyph-name="textarea" unicode="&#58953;" d="M878.11 341.56500000000005L698.48 149.95000000000005h179.63zM145.03 612.326h66.078v-306.365h-66.079zM942.341 750.05H82.345C36.869 750.05 0 713.174 0 667.703v-567.408c0-45.481 36.87-82.345 82.345-82.345h859.996c45.481 0 82.34 36.864 82.34 82.345V667.704c0 45.471-36.859 82.345-82.34 82.345z m15.81-665.575H66.992v599.04h891.16v-599.04z"  horiz-adv-x="1024" />
      
      <glyph glyph-name="upload" unicode="&#58954;" d="M0.089 354.42999999999995c0 124.378 82.237 233.716 192.153 266.112C253.074 780.877 403.708 896 579.93 896c177.646 0 324.186-115.078 384.973-275.458 113.432-33.153 192.198-141.066 192.198-266.113 0-153.971-119.573-279.15-270.919-279.15-28.347 0-53.934 26.61-53.934 56.07 0 33.82 25.587 56.115 53.934 56.115 91.226 0 163.806 74.093 163.806 166.876 0 49.618-21.449 95.676-56.649 125.136l-9.656 9.434a49.173 49.173 0 0 1-12.46 10.057c-2.76 3.604-9.034 3.604-12.46 6.497h-3.427c-2.76 3.56-6.23 3.56-9.034 6.453h-3.47c-2.76 0-6.23 3.56-9.657 3.56-2.76 0-6.23 0-6.23 2.892h-9.034c-3.471 0-6.23 0-9.701 3.605h-25.5c-2.759 10.813-6.23 18.69-6.23 29.503-2.759 0-2.759 3.56-2.759 6.453-3.427 6.497-3.427 12.905-6.23 19.447 0 3.56-3.427 3.56-3.427 7.164-2.759 6.497-6.23 12.905-9.656 19.403v6.497c-2.804 6.452-9.078 12.905-12.46 19.446-53.178 92.116-151.39 154.64-261.975 154.64-113.342 0-211.466-62.568-264.688-154.64l-9.034-19.446c0-2.18-1.424-2.18-2.091-4.317l-1.38-2.18-9.701-19.403v-7.164l-8.945-19.447v-6.453c-3.47-10.769-6.942-18.69-6.942-29.459H248.89c-2.759-3.604-6.23-3.604-8.944-3.604h-6.23c-2.76-2.18-4.14-2.893-4.896-2.893a1.246 1.246 0 0 0-2.047 0c-2.759 0-6.23-3.56-9.033-3.56h-6.23c-3.427-2.937-6.23-2.937-9.657-6.497h-3.426c-2.76-2.893-6.23-2.893-9.079-6.497h-3.426c-2.76-3.56-6.23-6.453-9.701-10.057-6.23-2.848-8.945-6.497-12.416-9.39-35.244-29.504-53.222-75.562-53.222-125.18 0-92.783 72.58-166.876 160.38-166.876 32.485 0 56.693-22.295 56.693-56.07 0-29.505-24.208-56.071-56.694-56.071C123.133 75.27800000000002 0.09 200.45799999999997 0.09 354.34000000000003z m362.857-186.991c0 16.554 6.23 28.791 12.46 39.56l163.762 186.902c10.413 10.814 24.92 16.555 40.806 16.555 15.932 0 28.347-5.786 41.475-16.51l160.38-186.991a55.982 55.982 0 0 0-40.763-94.964c-15.931 0-27.68 8.678-38.048 19.447l-69.109 78.41v-281.955c0-33.82-24.208-55.403-53.935-55.403-31.105 0-53.222 21.582-53.222 55.403v281.91l-69.065-78.365c-10.368-10.814-25.543-19.447-41.43-19.447-28.391 0-53.311 25.9-53.311 55.403v0.045z"  horiz-adv-x="1157" />
      
      <glyph glyph-name="code-generation" unicode="&#58955;" d="M976-60H48c-26.4 0-48 21.6-48 47.2V780c0 26.4 21.6 47.2 48 47.2h928c26.4 0 48-21.6 48-47.2v-792.8c0-26.4-21.6-47.2-48-47.2zM96 780c-26.4 0-48-21.6-48-47.2 0-26.4 21.6-47.2 48-47.2s48 21.6 48 47.2S122.4 780 96 780z m144 0c-26.4 0-48-21.6-48-47.2 0-26.4 21.6-47.2 48-47.2s48 21.6 48 47.2-21.6 47.2-48 47.2z m144 0c-26.4 0-48-21.6-48-47.2 0-26.4 21.6-47.2 48-47.2s48 21.6 48 47.2-21.6 47.2-48 47.2z m592-144H48v-648.8h928V636zM356 512c4.8 4.8 12 4.8 16.8 0 4.8-4.8 4.8-12 0-16.8L204.8 328l168-167.2c4.8-4.8 4.8-12 0-16.8s-12-4.8-16.8 0L180 320c-2.4 1.6-4 4.8-4 8s0.8 6.4 3.2 8.8L356 512z m212.8-50.4c3.2 5.6 10.4 8 16 4.8s8-9.6 5.6-16l-136-256.8c-3.2-5.6-10.4-8-16-4.8s-8 9.6-5.6 16l136 256.8z m82.4 50.4c4.8 4.8 12 4.8 16.8 0l176-176c2.4-2.4 3.2-5.6 3.2-8.8 0-3.2-0.8-6.4-3.2-8.8l-176-176c-4.8-4.8-12-4.8-16.8 0-4.8 4.8-4.8 12 0 16.8l168 168-168 168c-4.8 4.8-4.8 12 0 16.8z"  horiz-adv-x="1024" />
      
      <glyph glyph-name="code" unicode="&#58956;" d="M896 736H128a32 32 0 0 1-32-32v-640a32 32 0 0 1 32-32h768a32 32 0 0 1 32 32V704a32 32 0 0 1-32 32z m-32-640H160V672h704v-576zM325.376 270.256a31.92 31.92 0 0 1 44.368-8.88 32 32 0 0 1 8.88 44.368L326.464 384l52.16 78.256a32 32 0 1 1-53.248 35.488l-64-96a32 32 0 0 1 0-35.504l64-95.984z m328.88-8.88a31.952 31.952 0 0 1 44.368 8.88l64 96a32 32 0 0 1 0 35.504l-64 96a32 32 0 0 1-53.248-35.488L697.552 384l-52.176-78.256a32 32 0 0 1 8.88-44.368z m-180.528-68.752a32 32 0 0 1 37.648 25.088l64 320a31.984 31.984 0 0 1-25.088 37.648 31.92 31.92 0 0 1-37.664-25.104l-64-320a31.984 31.984 0 0 1 25.104-37.632z"  horiz-adv-x="1024" />
      
      <glyph glyph-name="score" unicode="&#58957;" d="M571.596 65.80999999999995l211.147-108.773c9.598-4.798 19.195-4.798 28.793 0s14.396 19.196 9.597 28.793l-39.99 230.342c-4.798 28.793 4.8 59.185 23.994 78.38L971.495 460.91c9.598 9.598 9.598 19.195 4.8 28.793-3.2 12.796-12.798 22.394-22.395 22.394L718.76 545.69c-28.793 4.798-54.387 19.195-63.985 49.587L550.802 806.423c-4.799 9.597-14.397 14.396-23.994 14.396s-19.195-4.799-23.994-14.396l-99.175-215.946c-14.396-23.994-39.99-44.788-68.783-49.587l-230.341-33.592c-9.598 0-19.196-9.597-23.994-19.195-4.8-9.597 0-19.195 4.798-28.793l166.358-166.358c19.196-19.195 28.793-49.587 23.994-78.38l-39.99-230.341c0-9.598 4.8-19.196 9.598-28.793 4.799-9.598 19.195-4.799 28.793 0L485.218 64.21000000000004c31.992 15.996 60.785 15.996 86.378 1.6z m-270.331-182.354c-30.392-15.996-67.183-15.996-97.576 4.799-25.593 20.795-41.589 55.986-35.19 86.378l41.589 239.94c0 9.597 0 20.794-9.598 25.593L24.535 420.92C3.74 446.514-5.858 481.705 3.74 513.697s41.59 55.985 71.982 60.784l244.738 35.191c9.598 0 20.795 4.8 20.795 15.996L448.428 844.813C464.424 875.205 496.415 896 531.607 896s67.183-20.795 81.579-51.187l107.173-219.145c4.799-9.597 15.996-15.996 20.795-15.996l244.738-35.19c35.19-4.8 60.784-30.393 71.982-60.785 9.597-30.393 0-67.183-20.795-92.777L864.322 246.56399999999996c-4.798-4.799-9.597-15.996-9.597-25.593l41.59-239.94c4.798-35.19-9.598-67.183-35.192-86.378-25.593-20.795-67.183-20.795-97.575-4.799L544.403 1.8260000000000218c-9.597 4.799-20.794 4.799-25.593 0l-217.545-118.37zM653.176 161.78599999999994H408.438c-22.395 0-44.789 19.195-44.789 36.79s22.394 36.791 44.789 36.791h246.337c22.395 0 44.79-19.195 44.79-36.79s-23.995-36.791-46.39-36.791z"  horiz-adv-x="1061" />
      
      <glyph glyph-name="table" unicode="&#58958;" d="M329.143 109.714V219.43q0 8-5.143 13.142t-13.143 5.143H128q-8 0-13.143-5.143t-5.143-13.142v-109.715q0-8 5.143-13.143T128 91.43h182.857q8 0 13.143 5.142t5.143 13.143z m0 219.429V438.857q0 8-5.143 13.143t-13.143 5.143H128q-8 0-13.143-5.143t-5.143-13.143v-109.714q0-8 5.143-13.143T128 310.857h182.857q8 0 13.143 5.143t5.143 13.143z m292.571-219.429V219.43q0 8-5.143 13.142t-13.142 5.143H420.57q-8 0-13.142-5.143t-5.143-13.142v-109.715q0-8 5.143-13.143t13.142-5.142h182.86q8 0 13.142 5.142t5.143 13.143zM329.143 548.571V658.286q0 8-5.143 13.143t-13.143 5.142H128q-8 0-13.143-5.142t-5.143-13.143V548.57q0-8 5.143-13.142T128 530.286h182.857q8 0 13.143 5.143t5.143 13.142z m292.571-219.428V438.857q0 8-5.143 13.143t-13.142 5.143H420.57q-8 0-13.142-5.143t-5.143-13.143v-109.714q0-8 5.143-13.143t13.142-5.143h182.86q8 0 13.142 5.143t5.143 13.143z m292.572-219.429V219.43q0 8-5.143 13.142T896 237.714H713.143q-8 0-13.143-5.143t-5.143-13.142v-109.715q0-8 5.143-13.143t13.143-5.142H896q8 0 13.143 5.142t5.143 13.143zM621.714 548.571V658.286q0 8-5.143 13.143t-13.142 5.142H420.57q-8 0-13.142-5.142t-5.143-13.143V548.57q0-8 5.143-13.142t13.142-5.143h182.86q8 0 13.142 5.143t5.143 13.142z m292.572-219.428V438.857q0 8-5.143 13.143T896 457.143H713.143q-8 0-13.143-5.143t-5.143-13.143v-109.714q0-8 5.143-13.143t13.143-5.143H896q8 0 13.143 5.143t5.143 13.143z m0 219.428V658.286q0 8-5.143 13.143T896 676.57H713.143q-8 0-13.143-5.142t-5.143-13.143V548.57q0-8 5.143-13.142t13.143-5.143H896q8 0 13.143 5.143t5.143 13.142z m73.143 182.858v-621.715q0-37.714-26.858-64.571T896 18.286H128q-37.714 0-64.571 26.857T36.57 109.714V731.43q0 37.714 26.858 64.571T128 822.857h768q37.714 0 64.571-26.857t26.858-64.571z"  horiz-adv-x="1024" />
      
      <glyph glyph-name="switch" unicode="&#58959;" d="M692 104H332C182 104 62 224 62 374s120 270 270 270h360c150 0 270-120 270-270 0-147-120-270-270-270zM332 584c-117 0-210-93-210-210s93-210 210-210h360c117 0 210 93 210 210s-93 210-210 210H332zM191 374a150 150 0 1 1 300 0 150 150 0 1 1-300 0z"  horiz-adv-x="1024" />
      
      <glyph glyph-name="radio" unicode="&#58960;" d="M512 896c282.782 0 512-229.218 512-512s-229.218-512-512-512S0 101.218 0 384 229.218 896 512 896z m0-78.77C272.738 817.23 78.77 623.263 78.77 384S272.737-49.23 512-49.23 945.23 144.737 945.23 384 751.263 817.23 512 817.23z m0-118.153a315.077 315.077 0 1 0 0-630.154 315.077 315.077 0 0 0 0 630.154z"  horiz-adv-x="1024" />
      
      <glyph glyph-name="divider" unicode="&#58961;" d="M1088.731 82.505L950.2-55.95500000000004h-78.117l216.65 216.577v-78.117z m0-101.815v-36.644h-36.717l36.717 36.644z m0 281.747L770.267-55.95399999999995h-78.116l339.822 339.821h56.758v-21.43z m-158.5 21.43L590.336-55.95399999999995h-78.19l339.968 339.748h78.263z m-179.932 0L410.331-55.95399999999995h-78.19l339.896 339.748h78.262z m-179.931 0L230.4-55.95399999999995h-78.19l339.895 339.748h78.263z m-180.005 0L136.997 30.573999999999955v77.385l175.908 175.908h77.532-0.074z m-179.2 0l-74.166-74.166v74.166h74.166z m877.568 512.366l-172.47-172.47h-78.19l250.66 250.66v-78.19z m0-101.742v-70.729h-70.729l70.73 70.73zM1008.274 895.634L736.33 623.762h-78.263L930.085 895.707h78.262z m-179.931 0L556.325 623.835h-78.263L750.153 895.707h78.263z m-180.151 0L376.32 623.835h-78.263L570.075 895.707h78.263z m-179.858 0L196.389 623.835h-59.392V642.56L390.217 895.707h78.19-0.073z m-179.932 0L136.997 744.302V821.76L210.944 895.634h77.531-0.073zM1.024 487.863h1223.68v-68.023H0.951v68.023z"  horiz-adv-x="1243" />
      
      <glyph glyph-name="number" unicode="&#58962;" d="M279.273 104.727h512a46.545 46.545 0 0 0 0-93.09h-512a46.545 46.545 0 0 0 0 93.09z m33.838 617.984v-478.347H193.722V500.829c0 37.004-0.884 59.299-2.653 66.746a24.948 24.948 0 0 1-14.615 16.99c-8.006 3.863-25.786 5.771-53.341 5.771H111.29v55.855c57.717 12.38 101.562 37.888 131.491 76.52h70.284z m303.71-396.8v-81.547H354.163v68.235c77.778 127.256 124.044 206.01 138.706 236.218 14.662 30.255 22.016 53.854 22.016 70.75 0 13.032-2.234 22.714-6.656 29.137-4.422 6.377-11.171 9.588-20.247 9.588a22.249 22.249 0 0 1-20.201-10.612c-4.469-7.121-6.656-21.178-6.656-42.263v-45.522H354.164V577.35c0 26.763 1.397 47.942 4.143 63.348 2.746 15.5 9.542 30.72 20.387 45.661 10.798 14.988 24.902 26.298 42.217 33.978 17.361 7.68 38.167 11.544 62.37 11.544 47.477 0 83.317-11.776 107.707-35.328 24.296-23.552 36.445-53.341 36.445-89.368 0-27.368-6.842-56.32-20.48-86.853-13.731-30.534-54.04-95.325-121.018-194.42H616.82z m270.615 189.394c18.152-6.098 31.65-16.105 40.494-29.976 8.844-13.917 13.312-46.452 13.312-97.652 0-38.028-4.329-67.49-13.033-88.53-8.657-20.945-23.598-36.91-44.87-47.848-21.27-10.938-48.593-16.384-81.873-16.384-37.795 0-67.49 6.33-89.088 19.084-21.55 12.66-35.747 28.253-42.542 46.638-6.796 18.432-10.194 50.362-10.194 95.884v37.841h119.39v-77.73c0-20.667 1.21-33.84 3.723-39.425 2.42-5.585 7.913-8.424 16.337-8.424 9.31 0 15.36 3.537 18.34 10.612 2.932 7.121 4.421 25.6 4.421 55.575v33.047c0 18.34-2.048 31.744-6.19 40.216a30.72 30.72 0 0 1-18.34 16.71c-8.052 2.653-23.738 4.189-46.964 4.561V538.95c28.393 0 45.894 1.07 52.597 3.258a22.947 22.947 0 0 1 14.475 14.15c2.933 7.307 4.422 18.711 4.422 34.257V617.24c0 16.757-1.722 27.741-5.12 33.048-3.49 5.352-8.844 8.005-16.151 8.005-8.285 0-13.964-2.792-16.99-8.378-3.025-5.632-4.56-17.64-4.56-35.933v-39.284h-119.39V615.47c0 45.66 10.473 76.567 31.325 92.625 20.9 16.058 54.086 24.064 99.608 24.064 56.878 0 95.51-11.17 115.805-33.373 20.293-22.249 30.394-53.202 30.394-92.765 0-26.81-3.63-46.173-10.892-58.089-7.307-11.916-20.107-22.807-38.446-32.628z"  horiz-adv-x="1024" />
      
      <glyph glyph-name="preview-picture" unicode="&#58963;" d="M261.554 840.004h86.523c13.547 0 23.12-6.864 29.082-18.244 5.78-10.837 5.419-22.037-0.904-32.513-6.683-11.2-16.798-16.799-30.165-16.799-44.074 0.18-88.329 0.18-132.403 0-18.786 0-36.668-3.793-52.925-13.367-33.597-20.05-51.3-49.854-51.841-88.87-0.542-35.224-0.18-70.447-0.18-105.67 0-7.406-0.904-14.45-5.059-21.134-7.767-12.825-23.301-19.147-38.113-15.173-14.45 3.974-24.746 17.16-24.746 32.153 0 46.241-0.542 92.664 0.18 138.905 0.542 46.964 20.592 84.536 57.802 112.895 20.954 15.896 44.797 24.746 70.808 27.456 1.987 0.361 4.335 0.361 6.683 0.361h85.258z m501.072 0h-86.522c-13.548 0-23.121-6.864-29.082-18.244-5.78-10.837-5.419-22.037 0.903-32.513 6.684-11.2 16.799-16.799 30.166-16.799 44.074 0.18 88.328 0.18 132.403 0 18.785 0 36.668-3.793 52.925-13.367 33.597-20.05 51.299-49.854 51.84-88.87 0.543-35.224 0.181-70.447 0.181-105.67 0-7.406 0.904-14.45 5.058-21.134 7.767-12.825 23.302-19.147 38.113-15.173 14.45 3.974 24.747 17.16 24.747 32.153 0 46.241 0.542 92.664-0.18 138.905-0.543 46.964-20.593 84.536-57.803 112.895-20.953 15.896-44.796 24.746-70.807 27.456-2.349 0.18-4.697 0.361-6.864 0.361h-85.078zM261.554-72.18499999999995h86.523c13.547 0 23.12 6.864 29.082 18.244 5.78 10.838 5.419 22.037-0.904 32.514-6.683 11.199-16.798 16.798-30.165 16.798-44.074-0.18-88.329-0.18-132.403 0-18.786 0-36.668 3.794-52.925 13.367-33.597 20.05-51.3 49.854-51.841 88.87-0.542 35.224-0.18 70.447-0.18 105.67 0 7.406-0.904 14.45-5.059 21.134-7.767 12.825-23.301 19.147-38.113 15.173-14.45-3.974-24.746-17.16-24.746-32.152 0-46.242-0.542-92.664 0.18-138.906 0.542-46.964 20.592-84.535 57.802-112.895 20.954-15.895 44.797-24.746 70.808-27.456 2.348-0.18 4.696-0.36 6.864-0.36h85.077z m501.072 0h-86.522c-13.548 0-23.121 6.864-29.082 18.244-5.78 10.838-5.419 22.037 0.903 32.514 6.684 11.199 16.799 16.798 30.166 16.798 44.074-0.18 88.328-0.18 132.403 0 18.785 0 36.668 3.794 52.925 13.367 33.597 20.05 51.299 49.854 51.84 88.87 0.543 35.224 0.181 70.447 0.181 105.67 0 7.406 0.904 14.45 5.058 21.134 7.767 12.825 23.302 19.147 38.113 15.173 14.45-3.974 24.747-17.16 24.747-32.152 0-46.242 0.542-92.664-0.18-138.906-0.543-46.964-20.593-84.535-57.803-112.895-20.953-15.895-44.796-24.746-70.807-27.456-2.349-0.18-4.697-0.36-6.864-0.36h-85.078zM233.195 204.36199999999997c5.42-13.547 16.438-21.495 29.443-21.495h495.834c8.85 0 16.618 3.612 22.94 10.838s12.825 16.076 12.825 26.372V536.182c0 27.456-11.38 41.184-24.386 46.603-13.005 5.6-26.733 1.445-35.765-10.477L561.222 342.726c-6.322-8.49-14.631-12.825-24.385-12.825s-18.063 4.335-24.385 12.825l-76.95 102.237c-6.502 8.49-14.811 12.825-24.565 12.825s-18.063-4.516-24.566-13.005L238.072 244.10000000000002c-8.67-11.38-10.296-26.192-4.877-39.739z"  horiz-adv-x="1024" />
      
      <glyph glyph-name="empty-trash" unicode="&#58964;" d="M907.116 783.355H806.764V803.104A93.622 93.622 0 0 1 712.191 895.994H314.296a93.622 93.622 0 0 1-94.427-92.89v-19.749H119.37C55.006 783.355 2.782 732.01 0.807 668.741c0-5.924 1.975-9.874 5.998-13.897 4.023-3.876 8.045-5.851 14.043-5.851h90.477v-685.711a91.428 91.428 0 0 1 92.453-90.916h616.956a91.428 91.428 0 0 1 92.453 90.916V647.018h90.404a18.359 18.359 0 0 1 14.116 5.851 21.211 21.211 0 0 1 5.998 13.897c0 65.243-52.224 116.59-116.59 116.59zM260.024 801.13c0 29.623 24.137 53.394 54.272 53.394H712.19c30.135 0 54.272-23.771 54.272-53.394v-17.774H260.024V801.13z m614.982-837.847c0-29.623-24.137-51.346-52.297-51.346H205.752a51.42 51.42 0 0 0-52.223 51.346V647.018H876.98v-683.736h-1.975zM512 357.52L348.892 520.6279999999999a32.914 32.914 0 0 1-46.665-46.592l163.108-163.181-163.108-163.108a32.914 32.914 0 0 1 46.592-46.665L512 264.19000000000005l163.108-163.108a32.914 32.914 0 0 1 46.665 46.592l-163.108 163.18 163.108 163.109a32.914 32.914 0 0 1-46.592 46.665L512 357.52z m383.12 328.995H44.985c10.02 31.597 40.229 55.369 74.386 55.369h787.745c34.23 0 64.365-23.772 74.386-55.37H895.12z"  horiz-adv-x="1024" />
      
      <glyph glyph-name="color" unicode="&#58965;" d="M954.757 604.527c-3.61 3.685-8.041 5.583-13.168 5.641-12.515 0.141-26.509-10.942-36.036-20.255L564.641 258.736c-12.5-12.228-58.516-86.966-60.468-90.143l-7.452-12.121 12.135 7.428c3.218 1.968 78.964 48.374 91.438 60.57l340.911 331.177c15.151 14.816 26.672 35.436 13.552 48.88z m-212.77-103.005c0-27.61-22.407-50.016-50.015-50.016-27.613 0-50.021 22.407-50.021 50.016 0 27.61 22.408 50.018 50.02 50.018 27.609 0 50.016-22.409 50.016-50.018zM216.812 326.46900000000005c-27.61 0-50.016 22.403-50.016 50.012 0 27.612 22.406 50.02 50.016 50.02 27.608 0 50.017-22.408 50.017-50.02 0-27.61-22.41-50.012-50.017-50.012z m75.026 175.053c0 27.61 22.408 50.018 50.015 50.018 27.61 0 50.018-22.409 50.018-50.018 0-27.61-22.407-50.016-50.018-50.016-27.609 0-50.015 22.382-50.015 50.016z m175.058 50.018c0 27.609 22.406 50.015 50.015 50.015 27.612 0 50.02-22.406 50.02-50.015s-22.41-50.018-50.02-50.018c-27.609 0-50.015 22.384-50.015 50.018zM853.74 381.91600000000005c-22.988-148.967-158.732-299.943-351.946-299.943-36.782 0-76 7.275-107.598 19.959-33.607 13.49-48.85 29.353-51.907 39.693-1.595 5.398-3.093 11.296-4.68 17.541-4.65 18.302-9.922 39.046-20.252 56.26-18.376 30.618-44.815 37.044-63.76 37.044-7.166 0-14.798-0.913-22.676-2.711-12.865-2.936-25.362-4.424-37.14-4.424-25.124 0-67.464 6.665-68.766 51.307-6.59 227.943 180.735 351.749 369.298 373.326 13.337 1.525 27.603 2.296 42.403 2.296 53.124 0 111.543-10 152.463-26.1 9.248-3.637 14.376-6.015 39.204-18.183 25.653-12.57 46.348-30.432 62.898-47.642l30.158 53.074c-18.027 17.014-40.334 34.407-67.103 47.526-24.89 12.197-31.893 15.514-43.565 20.106-47.34 18.623-114.033 30.193-174.053 30.193-17.027 0-33.545-0.9-49.102-2.678-115.514-13.22-220.688-59.057-296.143-129.074C105.965 520.144 62.6 414.832 66.068 294.92999999999995c1.005-34.47 15.117-63.017 40.81-82.556 22.38-17.02 52.431-26.014 86.903-26.014 16.187 0 33.097 1.985 50.268 5.903 3.582 0.818 6.794 1.232 9.549 1.232 11.469 0 16.99-10.044 26.852-48.853 1.654-6.51 3.365-13.241 5.282-19.73 9.434-31.913 39.343-58.785 86.495-77.712 38.318-15.382 85.544-24.203 129.567-24.203 54.104 0 106.474 10.135 155.659 30.123 46.24 18.793 88.501 45.763 125.606 80.165 35.745 33.14 65.271 71.79 87.757 114.883 22.526 43.163 36.888 88.667 42.691 135.27 0.262 2.116 0.51 4.32 0.732 6.547l0.149 1.47v0.057c0.222 2.336 0.404 4.695 0.57 7.065l-61.218-16.661z"  horiz-adv-x="1024" />
      
      <glyph glyph-name="file-upload" unicode="&#58966;" d="M1160.955-128H160.206c-51 0-92.49 41.49-92.49 92.49V803.51c0 51 41.49 92.49 92.49 92.49h434.175c51.007 0 92.49-41.49 92.49-92.49 0-14.536-11.89-26.426-26.426-26.426s-26.425 11.89-26.425 26.426c0 21.935-17.704 39.638-39.64 39.638H160.207c-21.935 0-39.638-17.703-39.638-39.638v-839.02c0-21.935 17.703-39.638 39.638-39.638h1000.749c14.53 0 26.426-11.89 26.426-26.426S1175.749-128 1160.955-128z m0 0M1160.955-128c-14.536 0-26.426 11.89-26.426 26.426s11.89 26.426 26.426 26.426c21.929 0 39.639 17.703 39.639 39.638V508.07c0 21.93-17.71 39.64-39.639 39.64H379.278c-21.937 0-39.639-17.71-39.639-39.64v-354.903c0-14.529-11.891-26.426-26.425-26.426-14.536 0-26.426 11.897-26.426 26.426V508.071c0 51 41.49 92.49 92.49 92.49h781.677c51 0 92.49-41.49 92.49-92.49v-543.58c0-51-41.49-92.491-92.49-92.491zM962.497 684.065H727.038c-51 0-92.49 41.49-92.49 92.49v13.742c0 14.536 11.89 26.426 26.426 26.426s26.426-11.89 26.426-26.426v-13.742c0-21.936 17.71-39.638 39.638-39.638h235.46c14.528 0 26.425-11.892 26.425-26.426 0-14.536-11.897-26.426-26.426-26.426z m0 0M247.413-128h-20.878c-14.536 0-26.426 11.89-26.426 26.426s11.89 26.426 26.426 26.426h20.878c21.929 0 39.639 17.703 39.639 39.638V187.25800000000004c0 14.536 11.89 26.426 26.426 26.426s26.426-11.89 26.426-26.426V-35.50999999999999c-0.265-51-41.49-92.49-92.49-92.49z m826.071 675.445c-14.536 0-26.426 11.89-26.426 26.426v70.291c0 21.935-17.71 39.639-39.639 39.639H887.975c-14.536 0-26.426 11.89-26.426 26.426 0 14.534 11.89 26.425 26.426 26.425h119.444c51 0 92.49-41.491 92.49-92.49v-70.29c0-14.537-11.89-26.427-26.425-26.427z m-290.42-483.858c-14.535 0-26.425 11.89-26.425 26.426V370.394c0 14.53 11.89 26.426 26.425 26.426s26.426-11.897 26.426-26.426v-280.381c0-14.536-11.89-26.426-26.426-26.426z m0 0M896.168 230.86400000000003c-6.872 0-13.478 2.64-18.768 7.665L764.304 351.625c-10.31 10.311-10.31 26.956 0 37.265 10.302 10.303 26.947 10.303 37.257 0l113.368-113.104c10.303-10.309 10.303-26.954 0-37.257-5.283-5.29-11.89-7.665-18.76-7.665z m0 0M669.696 230.86400000000003c-6.87 0-13.477 2.64-18.76 7.665-10.31 10.303-10.31 26.948 0 37.257l113.368 113.369c10.302 10.302 26.947 10.302 37.257 0 10.304-10.31 10.304-26.955 0-37.264L688.194 238.529c-5.02-5.29-11.626-7.665-18.498-7.665z m0 0"  horiz-adv-x="1321" />
      
    </font>
</defs>
</svg>
